23 de nov de 2011

Convertendo vídeos para o formato AMV no Linux

Tutorial básico para conversão de vídeos (AVI, MPEG, etc) para o formato AMV, compatível com aparelhos MP3/MP4/MTV players xing ling (Made in China), utilizando o amv-codec-tools:

1. Baixar o binário amv-ffmpeg-linux-i386-20071030 (ou versão mais recente) AQUI;

2. No Terminal, acessar a pasta Downloads, renomear e dar permissão de execução ao binário:
cd Downloads/

mv amv-ffmpeg-linux-i386-20071030 amv-ffmpeg

chmod +x amv-ffmpeg

3. Como root (ou usando o sudo), mover o binário para a pasta /usr/bin/:
mv amv-ffmpeg /usr/bin/

4. Exemplo de comando para converter um arquivo de vídeo qualquer para o formato AMV:
amv-ffmpeg -i VIDEO_ENTRADA.mpeg -s 160x120 -r 16 -ac 1 -ar 22050 -qmin 3 -qmax 3 VIDEO_SAIDA.amv

O comando acima converte um arquivo de vídeo MPEG com as propriedades:
Input #0, mpeg, from 'VIDEO_ENTRADA.mpeg':
Duration: 00:55:51.5, start: 1.000000, bitrate: 331 kb/s
Stream #0.0[0x1e0]: Video: mpeg1video, yuv420p, 160x120 [PAR 1:1 DAR 4:3], 104857 kb/s, 23.98 fps(r)
Stream #0.1[0x1c0]: Audio: mp2, 44100 Hz, stereo, 128 kb/s

Para um arquivo AMV com as seguintes propriedades:
Output #0, amv, to 'VIDEO_SAIDA.amv':
Stream #0.0: Video: amv, yuvj420p, 160x120 [PAR 1:1 DAR 4:3], q=3-3, 200 kb/s, 8.00 fps(c)
Stream #0.1: Audio: adpcm_ima_amv, 22050 Hz, mono, 64 kb/s

Referências:

0 comentários